#TITLE:Hardcore Symphony;
#SUBTITLE:~Paradox re-edit~;
#ARTIST:Digital Explosion;
#TITLETRANSLIT:;
#SUBTITLETRANSLIT:;
#ARTISTTRANSLIT:;
#CREDIT:;
#BANNER:Hardcore Symphony.png;
#BACKGROUND:Hardcore Symphony-bg.png;
#LYRICSPATH:;
#CDTITLE:Prdx.png;
#MUSIC:Hardcore Symphony.mp3;
#OFFSET:-0.100;
#SAMPLESTART:43.796;
#SAMPLELENGTH:12.000;
#SELECTABLE:YES;
#BPMS:0.000=174.000;
#STOPS:;
#BGCHANGES:;
// cache tags:
#FIRSTBEAT:16.000;
#LASTBEAT:292.500;
#SONGFILENAME:Songs/Chilean Keyboard Megapack 3/(Paradox) Hardcore Symphony/Hardcore Symphony.sm;
#HASMUSIC:1;
#HASBANNER:1;
#MUSICLENGTH:102.273;
// end cache tags

//---------------dance-single - ----------------
#NOTES:
     dance-single:
     :
     Challenge:
     11:
     1.000,1.000,1.000,0.020,0.660,592.000,175.000,2.000,0.000,0.000:
0000
0000
0000
0000
,
0000
0000
0000
0000
,
0000
0000
0000
0000
,
0000
0000
0000
0000
,
1001
0011
1100
0101
,
1001
1001
0000
0001
1000
0001
1000
0010
,
1001
1010
0110
0011
,
1001
0110
0000
1000
0100
1000
0001
0010
,
1001
0011
1100
0110
,
1100
0011
0000
1000
0001
0100
0001
1000
,
0011
1100
1001
0110
,
1001
0011
0000
1000
0100
1000
0001
0100
,
1001
0110
1100
0011
,
1001
0110
0000
0001
0010
0001
1000
0010
,
1001
0110
1100
1001
,
0011
0110
0000
0001
1000
0001
1000
0001
,
1001
0001
1000
0001
0100
0001
1001
0010
,
1000
0100
1010
0001
0010
0100
1001
0001
,
0100
0001
1001
0010
0100
0001
1010
0001
,
0100
0001
1001
0010
1000
0001
0110
0001
,
1000
0010
0101
1000
0100
0010
1001
0010
,
0100
1000
0011
1000
0001
0100
1001
1000
,
0010
0100
0110
1000
0001
0100
1010
0001
,
0010
0100
1010
0001
1000
0001
1100
0010
,
0011
0000
1100
0011
1010
0000
0110
0011
,
1100
1001
0110
0101
1100
0000
1100
0000
,
0010
0000
1001
1001
1001
0000
0001
0000
0100
0000
0010
0000
1000
0000
0010
0000
,
0001
0000
0011
0011
0011
0000
0010
0000
0100
0000
0010
0000
0001
0000
0100
0000
,
1001
0000
0110
1010
0101
0000
1010
0101
,
0011
1100
0011
1100
0101
0000
1100
0000
,
1000
0000
1100
1100
1100
0000
0100
0000
0001
0000
0100
0000
0010
0000
0001
0000
,
0100
0000
0110
0110
0110
0000
0100
0000
1000
0000
0100
0000
0001
0000
0100
0000
,
0110
0000
0011
0101
1100
0000
1100
0011
,
0011
1100
0110
0011
1100
0000
1001
0000
,
0010
0000
1010
1010
1010
0000
0100
0000
0010
0000
0001
0000
0100
0000
1000
0000
,
0100
0000
0101
0101
0101
0000
0010
0000
1000
0000
0010
0000
0010
0000
0001
0000
,
1100
0000
1001
0110
0101
0000
1001
0110
,
0011
1100
1001
0110
0011
0000
0011
0000
,
1000
0000
0011
0011
0011
0000
1000
0000
0010
0000
1000
0000
0001
0000
1000
0000
,
0001
0000
1000
0100
1000
0000
0100
0000
0001
0000
1000
0000
0010
0000
0000
0000
,
0101
0110
1001
0101
,
0001
0110
0000
0001
0100
1000
0100
0001
,
0110
0101
1001
0011
,
1100
0110
0000
0101
0010
0001
0010
1000
,
0011
1100
1010
1001
,
0110
1001
0000
0001
0100
0001
1000
0010
,
0011
0101
1100
0011
,
0101
1001
0000
0001
0100
1000
0100
0001
,
0011
1100
1010
0101
,
0110
0011
0000
0010
1000
0010
0001
0100
,
0110
1100
0101
0110
,
0110
1001
0000
0001
0100
0001
1000
0100
,
0011
1100
0011
0110
,
1001
0110
0000
0001
1000
0001
0100
0010
,
1001
0110
0011
1100
,
1001
0110
1001
0110
,
1000
0001
0100
0010
1000
0001
1000
0001
0100
0001
1000
0010
1000
0001
0100
0001
,
1000
0100
0010
0001
0010
0100
1000
0001
0100
0001
1000
0010
1000
0001
0100
0001
,
1000
0010
1000
0100
0010
0001
1000
0100
0010
0001
1000
0001
0010
0100
1000
0100
,
0010
0001
1000
0001
0100
0001
1000
0010
1000
0001
0100
0001
1000
0010
1000
0100
,
0010
0001
0010
0001
0010
0001
1000
0100
1000
0001
1000
0100
0010
0001
0010
0100
,
1000
0001
0100
0001
1000
0010
1000
0100
1000
0001
0100
0001
1000
0010
1000
0001
,
1000
0001
0100
0001
1000
0010
1000
0001
0100
0001
1000
0010
1000
0001
1000
0010
,
0100
0001
1000
0100
1000
0100
0010
0001
0010
0100
1000
0001
0100
0001
1000
0010
,
1000
0100
0010
0001
1000
0100
1000
0001
0100
0001
1000
0010
1000
0001
0100
0001
,
0010
0100
1000
0001
0100
0001
1000
0100
0010
1000
0001
1000
0001
0100
0001
1000
,
0001
0100
0001
1000
0010
1000
0001
0010
0100
1000
0100
0010
0001
1000
0001
0100
,
0001
1000
0010
1000
0001
0100
0001
1000
0010
1000
0100
0010
0001
1000
0001
1000
,
0001
0100
0010
1000
0100
1000
0001
0100
0001
1000
0010
1000
0001
0100
0001
1000
,
0010
1000
0100
1000
0001
1000
0001
0100
0001
1000
0010
1000
0001
0100
0001
0010
,
0100
1000
0100
0010
0001
1000
0010
1000
0001
0100
0001
1000
0010
1000
0100
0010
,
0001
0010
0100
1000
0001
0100
0001
1000
0010
1000
0001
0100
0001
0100
0000
0000
,
0101
0110
1001
0220
,
0000
0330
0000
0000
0000
0000
0000
0000
;
